Скачать фильм золото через торрент бесплатно в хорошем качестве

1 Star2 Stars3 Stars4 Stars5 Stars (Пока оценок нет)
Загрузка...

Золото

Продолжительность: 110 мин. / 01:50

Скачать фильм «Золото» через торрент бесплатно

Перевод: Не требуется

Качество: DVDRip / DVD5 R5

Видео: 720x320 (2.3:1), 25.000 fps, XviD

809 kbps avg, 0.140 bit/pixel

Аудио: 48 kHz, Dolby MP3, 2 ch, 128 kbps,русский

Видео: Идентификатор : 0 Формат : MPEG-4 Visual Профиль формата : Advanced [email protected] Параметр BVOP формата : 1 Параметр QPel формата : Нет Параметр GMC формата : Без точки перехода Параметр матрицы формата : Выборочная Идентификатор кодека : XVID Идентификатор кодека/Подсказка : XviD Продолжительность : 1 ч. 50 м. Битрейт : 809 Кбит/сек Ширина : 720 пикселей Высота : 320 пикселей Соотношение сторон : 2,25:1 Частота кадров : 25,000 кадров/сек Цветовое пространство : YUV Субдискретизация насыщенности : 4:2:0 Битовая глубина : 8 бит Тип развёртки : Прогрессивная Метод сжатия : С потерями Бит/(Пиксели*Кадры) : 0.140 Размер потока : 637 Мбайт (85%) Библиотека кодирования : XviD 73

Аудио: Идентификатор : 1 Формат : MPEG Audio Версия формата : Version 1 Профиль формата : Layer 3 Идентификатор кодека : 55 Идентификатор кодека/Подсказка : MP3 Продолжительность : 1 ч. 50 м. Вид битрейта : Постоянный Битрейт : 128 Кбит/сек Каналы : 2 канала Частота : 48,0 КГц Метод сжатия : С потерями Размер потока : 101 Мбайт (14%) Выравнивание : Соединение по промежуткам Продолжительность промежутка : 40 мс. (1,00 видеокадр) Время предзагрузки промежутка : 504 мс.

Перевод: не требуется

Качество: DVDRip / DVD5 R5

Видео: 720x320 (2.3:1), 25.000 fps, XviD

1436 kbps avg, 0.249 bit/pixel

Аудио: 48 kHz, Dolby AC3, 6 ch, 448 kbps,русский

Видео: Идентификатор : 0 Формат : MPEG-4 Visual Профиль формата : Advanced [email protected] Параметр BVOP формата : 1 Параметр QPel формата : Нет Параметр GMC формата : Без точки перехода Параметр матрицы формата : Выборочная Идентификатор кодека : XVID Идентификатор кодека/Подсказка : XviD Продолжительность : 1 ч. 50 м. Битрейт : 1436 Кбит/сек Ширина : 720 пикселей Высота : 320 пикселей Соотношение сторон : 2,25:1 Частота кадров : 25,000 кадров/сек Цветовое пространство : YUV Субдискретизация насыщенности : 4:2:0 Битовая глубина : 8 бит Тип развёртки : Прогрессивная Метод сжатия : С потерями Бит/(Пиксели*Кадры) : 0.249 Размер потока : 1,10 Гбайт (76%) Библиотека кодирования : XviD 73

Аудио: Идентификатор : 1 Формат : AC-3 Формат/Информация : Audio Coding 3 Расширение режима : CM (complete main) Параметр Endianness формата : Big Идентификатор кодека : 2000 Продолжительность : 1 ч. 50 м. Вид битрейта : Постоянный Битрейт : 448 Кбит/сек Каналы : 6 каналов Расположение каналов : Front: L C R, Side: L R, LFE Частота : 48,0 КГц Битовая глубина : 16 бит Метод сжатия : С потерями Размер потока : 353 Мбайт (24%) Выравнивание : Разделение по промежуткам Продолжительность промежутка : 40 мс. (1,00 видеокадр) Время предзагрузки промежутка : 500 мс.

Качество: HDTV (1080i)

Видео: MPEG-TS AVC, 4253 Кбит/с, 1920x1080