Скачать бесплатно фильм салют 7 2017 г через торрент в хорошем качестве

1 Star2 Stars3 Stars4 Stars5 Stars (Пока оценок нет)
Загрузка...

Салют-7 (2017) cкачать торрент или смотреть онлайн

Описание фильма "Салют-7"

Создатели киноленты «Салют-7» обращаются к легендарным страницам истории первой в мире коммунистической страны. Сюжет базируется на полете 1985 года к одноименной орбитальной станции, считающимся наиболее трудным в хрониках освоения космоса землянами.

События начинают развиваться с того момента, когда центр управления полетами теряет связь с космической станцией «Салют-7». Решено попытаться реанимировать станцию, отправив к ней спасательную экспедицию. Задача команды нетривиальная – обнаружить «затерявшийся» «Салют-7» и пристыковаться к неуправляемой станции весом в двадцать тонн.

Очевидно, что рассчитывать возвратиться обратно космонавтам не приходится, слишком мала вероятность, что все сложится удачно. Однако, покорители космоса берутся выполнить возложенную на них миссию и уберечь родную планету от неконтролируемого падения "Салюта".

Скачать Салют-7 через торрент

4059 kbps avg, 0.316 bit/pixel

384.00 kbps avg | русский |

76 Кбит/сMIОбщее Уникальный идентификатор : 186608868071431294163125796021513512859 (0x8C638F896CF1AA81B60FDD094FE4679B) Полное имя : D:MOVIESSaljut-7.2017.WEB-DLRip.AVC.ExKinoRay.mkv Формат : Matroska Версия формата : Version 4 / Version 2 Размер файла : 745 Мбайт Продолжительность : 1 ч. 46 м. Общий поток : 982 Кбит/сек Дата кодирования : UTC 2017-11-21 11:12:18 Программа кодирования : mkvmerge v15.0.0 ('Duel with the Devil') 64-bit Библиотека кодирования : libebml v1.3.5 + libmatroska v1.4.5 Видео Идентификатор : 1 Формат : AVC Формат/Информация : Advanced Video Codec Профиль формата : [email protected] Параметр CABAC формата : Да Параметр RefFrames формата : 10 кадров Идентификатор кодека : V_MPEG4/ISO/AVC Продолжительность : 1 ч. 46 м. Битрейт : 905 Кбит/сек Ширина : 800 пикселей Высота : 336 пикселей Соотношение сторон : 2,40:1 Режим частоты кадров : Постоянный Частота кадров : 25,000 кадров/сек Цветовое пространство : YUV Субдискретизация насыщенности : 4:2:0 Битовая глубина : 8 бит Тип развёртки : Прогрессивная Бит/(Пиксели*Кадры) : 0.135 Размер потока : 685 Мбайт (92%) Библиотека кодирования : x264 core 152 r2851kMod ba24899 Настройки программы : cabac=1 / ref=10 / deblock=1:-3:-3 / analyse=0x3:0x133 / me=umh / subme=11 / psy=1 / fade_compensate=0.00 / psy_rd=1.00:0.07 / mixed_ref=1 / me_range=32 / chroma_me=1 / trellis=2 / 8x8dct=1 / cqm=0 / deadzone=21,11 / fast_pskip=0 / chroma_qp_offset=-3 / threads=6 / lookahead_threads=1 / sliced_threads=0 / nr=0 / decimate=0 / interlaced=0 / bluray_compat=0 / constrained_intra=0 / bframes=10 / b_pyramid=2 / b_adapt=2 / b_bias=0 / direct=3 / weightb=1 / open_gop=0 / weightp=2 / keyint=250 / keyint_min=24 / scenecut=40 / intra_refresh=0 / rc_lookahead=40 / rc=2pass / mbtree=1 / bitrate=905 / ratetol=1.0 / qcomp=0.60 / qpmin=0 / qpmax=69 / qpstep=4 / cplxblur=20.0 / qblur=0.5 / vbv_maxrate=50000 / vbv_bufsize=62500 / nal_hrd=none / filler=0 / ip_ratio=1.40 / aq=3:1.00 Default : Да Forced : Нет Аудио Идентификатор : 2 Формат : AAC Формат/Информация : Advanced Audio Codec Профиль формата : LC Идентификатор кодека : A_AAC Продолжительность : 1 ч. 46 м. Битрейт : 76,0 Кбит/сек Каналы : 2 канала Расположение каналов : Front: L R Частота : 48,0 КГц Частота кадров : 46,875 кадров/сек (1024 SPF) Метод сжатия : С потерями Задержка видео : 9 мс. Размер потока : 57,6 Мбайт (8%) Default : Да Forced : Нет Меню 00:00:00.000 : en:Глава 1 00:06:40.400 : en:Глава 2 00:11:05.600 : en:Глава 3 00:18:02.120 : en:Глава 4 00:24:19.760 : en:Глава 5 00:30:39.960 : en:Глава 6 00:37:44.000 : en:Глава 7 00:43:57.120 : en:Глава 8 00:49:33.800 : en:Глава 9 00:56:28.360 : en:Глава 10 01:03:01.080 : en:Глава 11 01:09:37.040 : en:Глава 12 01:16:42.440 : en:Глава 13 01:24:57.280 : en:Глава 14 01:31:32.720 : en:Глава 15 01:37:10.960 : en:Глава 16 Скриншоты

У нас вы можете легко скачать Салют-7 через торрент бесплатно в хорошем качестве, оставляйте комментарии и делитесь впечатлениями!

Все рекомендуемые нами программы доступны на странице Скачать. На сайте Кино как То всегда все новые фильмы, доступные к скачиванию через торрент.

Установив программу KiloTorrent Player , вам больше не придется дожидаться окончания загрузки фильма, ведь вы сможете начать просмотр буквально через !